[2021] [大陆] [动画] [WEB-4K] 济公之降龙降世.Master.Ji.Gong.2021.2160p.WEB-DL.H265.AAC-10006@BBQDDQ.COM 2.61GB

◎译  名 济公之降龙降世 / Master Ji Gong
◎年  代 2021
◎产  地 中国大陆
◎类  别 动画 / 奇幻 / 冒险
◎语  言 汉语普通话
◎上映日期 2021-07-16(中国大陆)
◎IMDb链接 https://www.imdb.com/title//
◎豆瓣评分 4.8/10 (7327人评价)
◎豆瓣链接 https://movie.douban.com/subject/35489675/
◎片  长 92分钟
◎导  演 刘志江 Zhijiang Liu (id:1420037)
      乔彧 Yu Qiao (id:1329142)
◎编  剧 张挺 Ting Zhang (id:1322741)
◎演  员 朱婧 Jing Zhu (id:1450457)
      白文显 Wenxian Bai (id:1349359)
      李扬 Yang Li (id:1316809)
      杨帆 Fan Yang (id:1348346)
      泽飞 Zefei (id:1338294)
      靳东 Dong Jin (id:1314123)
      劳伦斯·施拉杰 Lawrence Shragge (id:1297520)
      蒂姆·琼斯 Tim Jones (id:1458140)
      焦杰峰 Jiefeng Jiao (id:1458137)
      石超群 Chaoqun Shi (id:1420426)

◎标  签 国漫 / 动画 / 济公 / 中国大陆 / 奇幻 / 2021 / 中国 / 成长

◎简  介
  赤城山脚下永宁村,为了让久病缠身的娘病愈,顽童李修缘一心想成为大英雄,却总是好心办坏事,让村庄鸡飞狗跳。在遭遇了一场场险遇后,李修缘得知自己就是大英雄降龙罗汉转世。其父李茂春受金翎蛊惑,为保护李修缘而抢夺金身,欲替儿子承担拯救世人的使命。却被金翎抢走金身献给金翅大鹏,金翅大鹏因此提前复活,欲毁灭人间。最后,李修缘父子为了大爱牺牲小爱,携手以肉身抵抗金翅大鹏,却终究以卵击石。濒死的李修缘,终于顿悟比金身更重要的是爱,最终化身降龙罗汉。经历人间疾苦后,降龙罗汉最终放弃果位。从此,天上少了一名降龙罗汉,世间多了一个云游天下,济世救人的活佛。

MediaInfo ######
General
Complete name : 济公之降龙降世.Master.Ji.Gong.2021.2160p.WEB-DL.H265.AAC-10006@BBQDDQ.COM.mp4
Format : MPEG-4
Format profile : Base Media
Codec ID : isom (isom/iso2/mp41)
File size : 2.61 GiB
Duration : 1 h 32 min
Overall bit rate : 4 030 kb/s
Writing application : OurTV Media Encoder

Video
ID : 1
Format : HEVC
Format/Info : High Efficiency Video Coding
Format profile : Main@L5@Main
Codec ID : hev1
Codec ID/Info : High Efficiency Video Coding
Duration : 1 h 32 min
Bit rate : 3 834 kb/s
Width : 3 840 pixels
Height : 1 608 pixels
Display aspect ratio : 2.40:1
Frame rate mode : Constant
Frame rate : 24.000 FPS
Color space : YUV
Chroma subsampling : 4:2:0
Bit depth : 8 bits
Bits/(Pixel*Frame) : 0.026
Stream size : 2.49 GiB (95%)
Codec configuration box : hvcC

Audio
ID : 2
Format : AAC LC
Format/Info : Advanced Audio Codec Low Complexity
Codec ID : mp4a-40-2
Duration : 1 h 32 min
Bit rate mode : Constant
Bit rate : 192 kb/s
Channel(s) : 2 channels
Channel layout : L R
Sampling rate : 44.1 kHz
Frame rate : 43.066 FPS (1024 SPF)
Compression mode : Lossy
Stream size : 126 MiB (5%)
Default : Yes
Alternate group : 1

济公之降龙降世.Master.Ji.Gong.2021.2160p.WEB-DL.H265.AAC-10006@BBQDDQ.COM 2.61GB.torrent

版权声明:
本站提供的一切软件、教程和内容信息仅限用于学习和研究目的;不得将上述内容用于商业或者非法用途,否则,一切后果请用户自负。本站信息来自网络收集整理,版权争议与本站无关。您必须在下载后的24个小时之内,从您的电脑或手机中彻底删除上述内容。如果您喜欢该程序和内容,请支持正版,购买注册,得到更好的正版服务。我们非常重视版权问题,如有侵权请邮件与我们联系处理。敬请谅解!
作者:Sooj
链接:https://www.sooj.cn/160.html
来源:搜集
THE END
分享
二维码
打赏
< <上一篇
下一篇>>