[2021] [大陆] [动画] [WEB-1080P] 俑之城[国语音轨].Realm.of.Terracotta.2021.1080p.WEB-DL.H265.DDP2.0-10006@BBQDDQ.COM 2.3

◎译  名 俑之城 / Realm of Terracotta
◎年  代 2021
◎产  地 中国大陆
◎类  别 动画 / 奇幻 / 冒险
◎语  言 汉语普通话
◎上映日期 2021-07-09(中国大陆) / 2021-06-20(上海国际电影节)
◎IMDb链接 https://www.imdb.com/title/tt10075380/
◎豆瓣评分 6.1/10 (12188人评价)
◎豆瓣链接 https://movie.douban.com/subject/30336307/
◎片  长 111分钟
◎导  演 丁亮 Liang Ding (id:1336904)
      林永长 Yongchang Lin (id:1352577)
◎编  剧 徐芸 Yun Xu (id:1336906)
      崔铁志 Tiezhi Cui (id:1336908)
◎演  员 朱光祖 Guangzu Zhu (id:1448679)
      张茗 Ming Zhang (id:1410984)
      周子瑜 Ziyu Zhou (id:1399035)
      谭笑 Xiao Tan (id:1336930)
      刘沛 Pei Liu (id:1338297)
      刘道强 (id:1416582)
      尚琳琳 (id:1416583)
      陈娇艳 (id:1416584)

◎标  签 国漫 / 动画 / 古风 / 奇幻 / 中国大陆 / 3D / 神话 / 2021

◎简  介
  地下世界,千奇百怪,不仅生活着兵马俑,还有各种各样的青铜文物复活的青铜兽和一种叫做“地犼”的地底原生生物。
地犼与俑的战斗旷日持久,男主角蒙远是地下秦陵中一打杂的杂役俑,他和神秘少女史玉合作抓捕地犼、经历险境,不料却发现地犼与兵俑战斗不息的谜团,却因此遭遇更大危机......

◎获奖情况 (共1项)
  第24届上海国际电影节 (2021)
  金爵奖 最佳动画片(提名)

##### MediaInfo ######
General
Complete name : 俑之城.Realm.of.Terracotta.2021.1080p.WEB-DL.H265.DDP2.0-10006@BBQDDQ.COM.mp4
Format : MPEG-4
Format profile : Base Media
Codec ID : isom (isom/iso2/mp41)
File size : 2.32 GiB
Duration : 1 h 51 min
Overall bit rate : 2 994 kb/s
Writing application : OurTV Multimedia Platform

Video
ID : 1
Format : HEVC
Format/Info : High Efficiency Video Coding
Format profile : Main@L4@Main
Codec ID : hev1
Codec ID/Info : High Efficiency Video Coding
Duration : 1 h 51 min
Bit rate : 2 541 kb/s
Width : 1 920 pixels
Height : 800 pixels
Display aspect ratio : 2.40:1
Frame rate mode : Constant
Frame rate : 24.000 FPS
Color space : YUV
Chroma subsampling : 4:2:0
Bit depth : 8 bits
Bits/(Pixel*Frame) : 0.069
Stream size : 1.97 GiB (85%)
Codec configuration box : hvcC

Audio #1
ID : 2
Format : E-AC-3
Format/Info : Enhanced AC-3
Commercial name : Dolby Digital Plus
Codec ID : ec-3
Duration : 1 h 51 min
Bit rate mode : Constant
Bit rate : 256 kb/s
Channel(s) : 2 channels
Channel layout : L R
Sampling rate : 48.0 kHz
Frame rate : 31.250 FPS (1536 SPF)
Compression mode : Lossy
Stream size : 203 MiB (9%)
Title : 国语DDP2.0
Language : Chinese
Service kind : Complete Main
Default : Yes
Alternate group : 1

Audio #2
ID : 3
Format : AAC LC
Format/Info : Advanced Audio Codec Low Complexity
Codec ID : mp4a-40-2
Duration : 1 h 51 min
Bit rate mode : Constant
Bit rate : 192 kb/s
Channel(s) : 2 channels
Channel layout : L R
Sampling rate : 44.1 kHz
Frame rate : 43.066 FPS (1024 SPF)
Compression mode : Lossy
Stream size : 151 MiB (6%)
Title : 国语AAC2.0
Language : Chinese
Default : No
Alternate group : 1

Realm.of.Terracotta.2021.1080p.WEB-DL.H265.DDP2.0-10006@BBQDDQ.COM 2.32GB.torrent

版权声明:
本站提供的一切软件、教程和内容信息仅限用于学习和研究目的;不得将上述内容用于商业或者非法用途,否则,一切后果请用户自负。本站信息来自网络收集整理,版权争议与本站无关。您必须在下载后的24个小时之内,从您的电脑或手机中彻底删除上述内容。如果您喜欢该程序和内容,请支持正版,购买注册,得到更好的正版服务。我们非常重视版权问题,如有侵权请邮件与我们联系处理。敬请谅解!
作者:Sooj
链接:https://www.sooj.cn/161.html
来源:搜集
THE END
分享
二维码
打赏
< <上一篇
下一篇>>